Реклама
Каталог
  iPhone
  Филми
      DVD-R
      XviD
      HDTV
      Сериали
      Формула 1
  Музика
      Песен
      Албум
      Клипове
  Игри
      PC
      Конзоли
  Програми
      Windows
      Linux
      MacOS
      PDA
  Книги
  XXX
  Други
  Всички
Форум
Теми:1,969
Отговори:221,402
Теми/Отговори:1 %
Торент детайли
Файл Хонг Гил Донг (2008) / Hong Gil Dong - HDTV-Rip
СВАЛИ Хонг Гил Донг (2008) / Hong Gil Dong - HDTV-Rip
Реклама
Инфо хeш 3568596982f5b7c0e2b9122d8be277485c7e8a4a
Описание




' ## Заглавие на Английски: Hong Gil Dong

## Заглавие на Български: Хонг Гил Донг

## Релийз: HDTV-Rip

## Жанр: Азиатски

## Режисьор: Lee Jung Sub

## Сценарист: Hong Jung Eun, Hong Mi Ran

## В ролите: Kang Ji Hwan, Sung Yu Ri, Jang Geun Suk, Kim Ri Na, Kim Jae Seung, Cha Hyun Jung, Park Sang Wook, Choi Ran, Ahn Suk Hwan, Jung Eun Pyo, Son Hyun Sul, Moon Se Yun, Kil Yong Woo, In Sung, Lee Duk Hee, Jo Hee Bong, Maeng Ho Rim, Kim Jong Suk, Park Yong Jin, Choi Seung Kyung, Byun Shin Ho, Jung Kyu Soo, Maeng Se Chang, Choi Soo Hwan, Lee In Sung

## Държава:: Друга

## Година: 2008

## Дължина: 72:00:00

## Субтитри: в торента

## Линк към IMDB: http://www.imdb.com/title/tt2511504/?ref_=fn_al_tt_1

## Резюме: Абсолютен непукист и лентяй, нахален, привидно глупав и отнесен, но всъщност умен и схватлив. Това е Хонг Гил Донг. Роден, като незаконен син на министър, той израства под напътствията

на мъдър монах, който тайно го научава на бойни изкуства и му предава знанията си. Изпитвайки уважение единствено към баща си и учителя си, Гил Донг живее в безделие, заради което обикновенните хора предимно го отбягват.

Градейки планове да напусне родината си и "робският" живот, той ненадейно се впуска в приключение, което не само ще пробуди сърцето му за любовта, но и ще го накара да види мъката и болката на хората. Ще го превърне в бандит, който защитава слабите и помага на нуждаещите се. Истински герой...

Смесвайки класическото с модерни елементи (музиката, танците, облеклата), този сериал е едновременно забавен и сериозен. Базиран е на корейска новела, написана от Heo Gyun някъде в края на 16-ти или началото на 17-ти век. Действието се развива в Joseon (Чосон), като история, макар да е оригинална, доста напомня за английският Робин Худ, който взима от богатите, за да помогне на бедните.


## Друга информация: Hong Gil Dong - 24 еп.

## Държава : Корея
## Година : 2008
## Времетраене : ~ 60 мин. на епизод
## Общо епизоди за сериала : 24
## Жанр : Драма, Комедия, Романтичен, Екшън
## Аудио/Език : Корейски език
## Български Субтитри : В торента.

The Legend / The Story of the First King's Four Gods / Tae Wang Sa Shin Gi - 24 ep.

Source : HDTV
Group Release : Ental
Years : 2008
Resolution : 640x352
Video: XVID 640x352 29.97fps [Stream 00]
Audio: MPEG Audio Layer 3 48000Hz stereo 192Kbps [Stream 01]
Frame rate : 29.970
Approx.Bitrate : 1413kbps
Genre : Comedy, romance, action
Total episodes: 24
Broadcast network: KBS2
Broadcast period: 2008-Jan-02 to 2008-Mar-20
Air time: Wednesday & Thursdays 21:55 (9:55 Korean time)

                         МР3

Заглавие.............: Hong Gil Dong (OST) (200cool1.gif
Изпълнител/Група.....: VA
Албум................: Hong Gil Dong
Година...............: 2008
Жанр.................: OST
Формат...............: MP3
Времетраене..........: 01:08:08
Среден битрейт.......: 192 kbps

         Траклиста
01. My luck is great - No Brain
02. What if - Girls Generation
03. Green star - Kim Hyun Jung
04. When it begins - Kim Yeon Woo
05. Brushwood boat - Girls Generation
06. Fate - Park Wan Kyu
07. New direction - Kim Eun Hee
08. U can’t stop (keep on moving)
09. Wild plain
10. WAVE OF REV.
11. Merry-go-round
12. The Day
13. Forgiveness
14. Hairdresser Mister, beautician Noona
15. Room of secret
16. Action borrow clan
17. Start of love
18. Last Tango
19. Rain pouring
20. Sword
21. Quick knife Hong Gil Dong

Descendants.Of.Hong.Gil.Dong.2009.DVDRip.XviD-SSF      

   Supplier : SSF TEAM                                        
    Ripper : SSF TEAM                                        
  Genre : Action / Drama                        
    iMDB : N / A                          
    iMDB Rating : N / A            
   DVD Rel Date : 03/12/2010                                      
  Release Date : 04/02/2010                                      
  Theater Date : 11/26/2009                                      
    Source : DVD                                              
  Aspect Ratio : 2.35 : 1                                        
   Video Format : XviD                                            
   Video Resolution : 640 X 272 (23.976 fps)        
http://www.youtube.com/watch?v=08FzL4xKQq0

Hong Kil Dong (1986)

Format : AVI
     Format/Info : Audio Video Interleave
     Format profile : OpenDML
     File size : 1.38 GiB
     Duration : 1h 44mn
     Overall bit rate : 711 Kbps
     Writing application : Lavf52.57.1
  Video #0
     ID : 0
     Format : MPEG-4 Visual
     Codec ID : FMP4
     Duration : 1h 44mn
     Bit rate : 655 Kbps
     Width : 688 pixels
     Height : 512 pixels
     Display aspect ratio : 4:3
     Frame rate : 25.000 fps
     Resolution : 24 bits
     Bits/(Pixel*Frame) : 0.074
     Stream size : 1.28 GiB (92%)
  Audio #1
     ID : 1
     Format : MPEG Audio
     Format version : Version 1
     Format profile : Layer 3
     Codec ID : 55
     Codec ID/Hint : MP3
     Duration : 1h 44mn
     Bit rate mode : Variable
     Bit rate : 134 Kbps
     Nominal bit rate : 128 Kbps
     Channel(s) : 2 channels
     Sampling rate : 48.0 KHz
     Resolution : 16 bits
     Stream size : 100 MiB (7%)
     Alignment : Aligned on interleaves
     Interleave, duration : 24 ms (0.60 video frame)
     Interleave, preload duration : 24 ms
     Writing library : LAME3.90.
     Encoding settings : -m j -V 4 -q 2 -lowpass 17.6 --abr 128


Категория Movies XviD
Оценка:
  • Currently 4.75/5
Rating: 4.8 out of 5.0 (Votes: 4) For your upload!

Размер 19.85 GB
Покажи / скрий файловете
115 files
Добавен 10/09/2013 - 16:46
Последно активен 25/04/2014 - 02:34
Свален 89 Път(и)
Пиъри Сийдъри: 1, Лийчъри: 0 = 1 Пиъри


Без коментар...