Реклама
Каталог
  iPhone
  Филми
      DVD-R
      XviD
      HDTV
      Сериали
      Формула 1
  Музика
      Песен
      Албум
      Клипове
  Игри
      PC
      Конзоли
  Програми
      Windows
      Linux
      MacOS
      PDA
  Книги
  XXX
  Други
  Всички
Форум
Теми:1,969
Отговори:221,365
Теми/Отговори:1 %
Торент детайли
Файл Спешна пратка (2012) / Premium Rush - BRRip
СВАЛИ Спешна пратка (2012) / Premium Rush - BRRip
Реклама
Инфо хeш 7025bcca7732596a3b8d046f0dc00a8745b9674d
Описание




' ## Заглавие на Английски: Premium Rush

## Заглавие на Български: Спешна пратка

## Релийз: BRRip

## Жанр: Екшън; Трилър

## Режисьор: Дейвид Коп

## Сценарист: Дейвид Коп

## В ролите: Джейми Чънг, Асиф Мандви, Джоузеф Гордън-Левит,
Даня Рамирес, Майкъл Шанън, Арън Твейт,
Лорън Ашли Картър, Уоли Паркс, Ким Перфето, Шон Кенеди


## Държава:: САЩ

## Година: 2012

## Дължина: 90мин.

## Официален сайт: http://www.premiumrush.com/

## Видео поток: Video
ID : 2
Format : AVC
Format/Info : Advanced Video Codec
Format profile : Baseline@L3.0
Format settings, CABAC : No
Format settings, ReFrames : 1 frame
Format settings, GOP : M=1, N=10
Codec ID : avc1
Codec ID/Info : Advanced Video Coding
Duration : 1h 30mn
Bit rate mode : Variable
Bit rate : 1 996 Kbps
Maximum bit rate : 3 000 Kbps
Width : 720 pixels
Height : 308 pixels
Display aspect ratio : 2.35:1
Frame rate mode : Constant
Frame rate : 23.976 fps
Color space : YUV
Chroma subsampling : 4:2:0
Bit depth : 8 bits
Scan type : Progressive
Bits/(Pixel*Frame) : 0.375
Stream size : 1.27 GiB (95%)
Language : English


## Аудио поток: Audio
ID : 1
Format : AAC
Format/Info : Advanced Audio Codec
Format profile : LC
Codec ID : 40
Duration : 1h 30mn
Bit rate mode : Constant
Bit rate : 96.0 Kbps
Channel(s) : 2 channels
Channel positions : Front: L R
Sampling rate : 44.1 KHz
Compression mode : Lossy
Stream size : 62.5 MiB (5%)
Language : English


## Субтитри: вградени във видео файла

## Линк към IMDB: http://www.imdb.com/title/tt1547234/

## Резюме: Новият филм на Дейвид Коп Спешна Пратка ще ви държи в напрежение до финалните надписи. Действието се развива в Манхатън, а главно действащо лице е Уили (Джоузеф Гордън-Левит) - един от най стриктните вело куриери в Ню Йорк. Яхнал супер лек велосипед, без скорости и спирачки, той всеки ден рискува животът си в натовареният трафик на острова Манхатън. Но един ден когато му остава да достави последната регулярна пратка, Уили забелязва че този път пакета е по-различен. А от горе на това и някой наистина се опитва да го убие.

## Друга информация:








Категория Movies x264
Оценка:
  • Currently 5.00/5
Rating: 5.0 out of 5.0 (Votes: 14) For your upload!

Размер 1.33 GB
Покажи / скрий файловете
2 files
Добавен 29/11/2012 - 07:54
Последно активен 24/04/2014 - 01:29
Свален 1447 Път(и)
Пиъри Сийдъри: 5, Лийчъри: 0 = 5 Пиъри


stanly13 (User) 10/12/2012 20:34:11 (71 weeks ago) Редактиране!
Хубав и приятен филм.Благодаря за труда да го качите и преведете!smile1.gif