Каталог
  iPhone
  Филми
      DVD-R
      XviD
      HDTV
      Сериали
      Формула 1
  Музика
      Песен
      Албум
      Клипове
  Игри
      PC
      Конзоли
  Програми
      Windows
      Linux
      MacOS
      PDA
  Книги
  XXX
  Други
  Всички
Форум
Теми:2,242
Отговори:260,925
Теми/Отговори:1 %
Торент детайли
Файл Сена (2010) / Senna - BRRip
СВАЛИ Сена (2010) / Senna - BRRip
Реклама
Инфо хeш 82195298176a44d81c5bec0ac1a656792454175b
Описание




' ## Заглавие на Английски: Senna

## Заглавие на Български: Сена

## Релийз: BRRip

## Жанр: Документален

## Режисьор: Азиф Кападиа

## Сценарист: Мениш Пандеу

## В ролите: Аертон Сена, Алан Прост, Франк Уилямс, Рон Денис, Вивиан Сена, Милтън де Силва, Нийд Сена, Джаки Стюарт, Сид Уоткинс и др.

## Държава:: Великобритания

## Година: 2010

## Дължина: 02:42:07

## Официален сайт: http://www.paramountpictures.com.br/senna/

## Видео поток: ###
Format : AVC
Format/Info : Advanced Video Codec
Format profile : High@L4.1
Format settings, CABAC : Yes
Format settings, ReFrames : 5 frames
Codec ID : avc1
Codec ID/Info : Advanced Video Coding
Duration : 2h 42mn
Bit rate mode : Variable
Bit rate : 1 685 Kbps
Maximum bit rate : 8 332 Kbps
Width : 720 pixels
Height : 400 pixels
Display aspect ratio : 16/9
Frame rate mode : Constant
Frame rate : 23.976 fps
Resolution : 24 bits
Colorimetry : 4:2:0
Scan type : Progressive
Bits/(Pixel*Frame) : 0.244
Stream size : 1.91 GiB (87%)
Writing library : x264 core 112 r1867bm 22bfd31
Tagged date : UTC 2011-03-27 01:11:10


## Аудио поток: ###
Format : AAC
Format/Info : Advanced Audio Codec
Format version : Version 4
Format profile : LC
Format settings, SBR : No
Codec ID : 40
Duration : 2h 42mn
Bit rate mode : Variable
Bit rate : 247 Kbps
Maximum bit rate : 553 Kbps
Channel(s) : 6 channels
Channel positions : Front: L C R, Rear: L R, LFE
Sampling rate : 48.0 KHz
Resolution : 16 bits
Stream size : 286 MiB (13%)
Encoded date : UTC 2011-03-27 01:11:05
Tagged date : UTC 2011-03-27 01:11:10


## Субтитри: от subsunacs.net

## Адрес на субтитрите (URL): http://subsunacs.net/get.php?id=70470

## Линк към IMDB: http://www.imdb.com/title/tt1424432/

## Резюме: ###
Аертон Сена - един от най-великите състезатели във Формула 1 на всички времена, загива на 1 май 1994г. на пистата Имола. Той беше човек с такъв екстраординарен талант и характер, че наследството му продължава да съществува, не само в спомените на тези, които са били свидетели на майсторството му на пистата, но и като пример за самоотверженост, състрадателност и честност за хората по целия свят. Изминаха много години от трагичния инцидент на Имола, но Сена си остава герой, източник на вдъхновение и пример за многото негови последователи.


## Друга информация: ##


IMDB рейтинг: 8.7/10 (476 гласували)


Български субтитри, благодарение на:
dieselboy и deagle92
























Категория Movies Documentary
Оценка:
  • Currently 5.00/5
Rating: 5.0 out of 5.0 (Votes: 3) For your upload!

Размер 2.19 GB
Покажи / скрий файловете
1 file
Добавен 29/03/2011 - 12:32
Последно активен 16/05/2017 - 20:41
Свален 141 Път(и)
Пиъри Сийдъри: 0, Лийчъри: 0 = 0 Пиъри


Без коментар...