Реклама
Каталог
  iPhone
  Филми
      DVD-R
      XviD
      HDTV
      Сериали
      Формула 1
  Музика
      Песен
      Албум
      Клипове
  Игри
      PC
      Конзоли
  Програми
      Windows
      Linux
      MacOS
      PDA
  Книги
  XXX
  Други
  Всички
Форум
Теми:2,146
Отговори:253,182
Теми/Отговори:1 %
Торент детайли
Файл Секретен отряд (2009) / Push - HD other
СВАЛИ Секретен отряд (2009) / Push - HD other
Реклама
Инфо хeш d1f5331e4dba9ca17037db124198ece042403de8
Описание




' ## Заглавие на Английски: Push

## Заглавие на Български: Секретен отряд

## Релийз: HD other

## Жанр: Екшън; Трилър; Фантастика

## Режисьор: Пол МакГуигън

## Сценарист: Дейвид Бурла

## В ролите: Дакота Фанинг, Скот Майкъл Кембъл, Крис Евaнс, Камила Бел, Джимон Хонсу, Клиф Къртис

## Държава:: САЩ; Канада

## Година: 2009

## Дължина: 01:51:27

## Видео поток: Format : HEVC
Format/Info : High Efficiency Video Coding
Format profile : Main 10@L4@Main
Codec ID : V_MPEGH/ISO/HEVC
Duration : 1 h 51 min
Bit rate : 2 677 kb/s
Width : 1 920 pixels
Height : 816 pixels
Display aspect ratio : 2.35:1
Frame rate mode : Constant
Frame rate : 23.976 (24000/1001) FPS
Color space : YUV
Chroma subsampling : 4:2:0
Bit depth : 10 bits
Bits/(Pixel*Frame) : 0.071
Stream size : 2.08 GiB (80%)


## Аудио поток: Audio #1

ID : 2
Format : AAC
Format/Info : Advanced Audio Codec
Format profile : LC
Codec ID : A_AAC
Duration : 1 h 51 min
Bit rate : 448 kb/s
Channel(s) : 6 channels
Channel positions : Front: L C R, Side: L R, LFE
Sampling rate : 48.0 kHz
Frame rate : 46.875 FPS (1024 spf)
Compression mode : Lossy
Stream size : 357 MiB (13%)
Language : English
Default : No
Forced : No

Audio #2

ID : 3
Format : AC-3
Format/Info : Audio Coding 3
Mode extension : CM (complete main)
Format settings, Endianness : Big
Codec ID : A_AC3
Duration : 1 h 51 min
Bit rate mode : Constant
Bit rate : 192 kb/s
Channel(s) : 2 channels
Channel positions : Front: L R
Sampling rate : 48.0 kHz
Frame rate : 31.250 FPS (1536 spf)
Bit depth : 16 bits
Compression mode : Lossy
Stream size : 153 MiB (6%)
Language : English
Default : No
Forced : No


## Субтитри: в торента

## Линк към IMDB: http://www.imdb.com/title/tt0465580/?ref_=nv_sr_1

## Резюме: Експериментите по телепатия и ясновидство от реалния живот вдъхновяват спиращия дъха екшън „Секретен отряд”, чието действие се развива в смъртоносния свят на хората с паранормални способности, където уменията да се местят обекти със съзнанието и да се вижда в бъдещето, да се създават нови реалности и да се убива жертвата без дори да е докосната, превръщат човека в смъртоносно оръжие... или в мишена.Ник Гант (Крис Еванс „Фантастичната четворка”) - телекинетик от второ поколение може да мести обекти в пространството: от зарове през оръжия до хора. Каси Холмс (Дакота Фанинг „Война на световете”) - тийнейджърка с таланта да вижда и променя бъдещето. Кира (Камила Бел), която притежава най-опасните телепатични сили – способността да влияе на действията на другите, като влиза в съзнанието им. Те тримата ще трябва да се изправят срещу могъща секретна агенция в битка, която могат да спечелят, само ако успеят да променят бъдещето.

## Друга информация:















Категория Movies x264
Оценка:
  • Currently 0.00/5
Rating: 0.0 out of 5.0 (Votes: 0) For your upload!

Размер 2.60 GB
Покажи / скрий файловете
2 files
Добавен 13/09/2017 - 22:41
Последно активен 19/09/2017 - 21:19
Свален 58 Път(и)
Пиъри Сийдъри: 11, Лийчъри: 0 = 11 Пиъри


Без коментар...